Mixkatalog
 Einloggen
Login
Passwort

Deep Dance 074 Hits: 505  

Deep Dance 074


Kurzbeschreibung:
Deep präsentiert Deep Dance 74, Version 2004.Eine weitere Ausgabe der Edition Reihe. Auch Egypt Reihe genannt.
 
Crew/DJ: Deep Reihe: DD Serie Edition
Stil: Dance Erscheinungsjahr: 2004
Anzahl Tonträger: 1 Spielzeit: 79:42
Trackliste:
Cue-Informationen:

FILE "filename.mp3" MP3
  TRACK 01 AUDIO
    INDEX 01 00:00:00
  TRACK 02 AUDIO
    INDEX 01 00:42:24
  TRACK 03 AUDIO
    INDEX 01 42:24:09
  TRACK 04 AUDIO
    INDEX 01 64:55:10
Wertung: (1)  
Hinzugefügt: 13 February 2011
RSS Feed
RSS Feed
Sprache
Deutsch Englisch Französisch
Mixsuche
Suchbegriff
Genauer Wortlaut
Alle Worte (UND)
Ein Wort (ODER)
Statistik
14221 Mixe eingetragen
13912 Tracklisten
Newsletter
E-Mail
Anmelden
Abmelden
SPONSOREN