Mixkatalog
 Einloggen
Login
Passwort

The Voice Of Rock 1 Hits: 226  

The Voice Of Rock 1


Kurzbeschreibung:
Dreamteam präsentiert The Voice of Rock Volume 1, die erste Mixserie welche Rockmusik mixt.
 
Crew/DJ: Dreamteam Reihe: The Voice Of Rock
Stil: Rock Erscheinungsjahr: 1996
Anzahl Tonträger: 1 Spielzeit: 76:58
Trackliste:
Cue-Informationen:

FILE "filename.mp3" MP3
  TRACK 01 AUDIO
    INDEX 01 00:00:00
  TRACK 02 AUDIO
    INDEX 01 00:20:60
  TRACK 03 AUDIO
    INDEX 01 02:59:65
  TRACK 04 AUDIO
    INDEX 01 04:30:62
  TRACK 05 AUDIO
    INDEX 01 06:51:02
  TRACK 06 AUDIO
    INDEX 01 09:23:35
  TRACK 07 AUDIO
    INDEX 01 11:10:12
  TRACK 08 AUDIO
    INDEX 01 13:56:07
  TRACK 09 AUDIO
    INDEX 01 15:28:32
  TRACK 10 AUDIO
    INDEX 01 17:56:72
  TRACK 11 AUDIO
    INDEX 01 21:43:42
  TRACK 12 AUDIO
    INDEX 01 23:58:65
  TRACK 13 AUDIO
    INDEX 01 27:30:57
  TRACK 14 AUDIO
    INDEX 01 30:10:02
  TRACK 15 AUDIO
    INDEX 01 31:58:07
  TRACK 16 AUDIO
    INDEX 01 35:51:60
  TRACK 17 AUDIO
    INDEX 01 38:08:20
  TRACK 18 AUDIO
    INDEX 01 39:13:45
  TRACK 19 AUDIO
    INDEX 01 40:19:30
  TRACK 20 AUDIO
    INDEX 01 41:51:15
  TRACK 21 AUDIO
    INDEX 01 43:23:05
  TRACK 22 AUDIO
    INDEX 01 44:59:70
  TRACK 23 AUDIO
    INDEX 01 46:28:17
  TRACK 24 AUDIO
    INDEX 01 48:18:12
  TRACK 25 AUDIO
    INDEX 01 51:16:00
  TRACK 26 AUDIO
    INDEX 01 53:29:40
  TRACK 27 AUDIO
    INDEX 01 57:32:20
  TRACK 28 AUDIO
    INDEX 01 59:58:57
  TRACK 29 AUDIO
    INDEX 01 65:50:57
  TRACK 30 AUDIO
    INDEX 01 71:55:55
Wertung: (1)  
Hinzugefügt: 11 August 2009
RSS Feed
RSS Feed
Sprache
Deutsch Englisch Französisch
Mixsuche
Suchbegriff
Genauer Wortlaut
Alle Worte (UND)
Ein Wort (ODER)
Statistik
12998 Mixe eingetragen
12706 Tracklisten
Newsletter
E-Mail
Anmelden
Abmelden
SPONSOREN