Mixkatalog
 Einloggen
Login
Passwort

Marius Müller Westernhagen Partymix 1 Hits: 258  

Marius Müller Westernhagen Partymix 1


Kurzbeschreibung:
Marius Müller Westernhagen (MMW) Partymix Volume 1. Extra Bonustracks zum Feiern!
 
Crew/DJ: M Reihe: Marius Müller Westernhagen
Stil: Rock Erscheinungsjahr: 1995
Anzahl Tonträger: 1 Spielzeit: 71:12
Trackliste:
Cue-Informationen:

FILE "filename.mp3" MP3
  TRACK 01 AUDIO
    INDEX 01 00:00:00
  TRACK 02 AUDIO
    INDEX 01 31:36:42
  TRACK 03 AUDIO
    INDEX 01 37:20:22
  TRACK 04 AUDIO
    INDEX 01 43:06:07
  TRACK 05 AUDIO
    INDEX 01 46:23:32
  TRACK 06 AUDIO
    INDEX 01 49:45:37
  TRACK 07 AUDIO
    INDEX 01 53:12:40
  TRACK 08 AUDIO
    INDEX 01 56:24:65
  TRACK 09 AUDIO
    INDEX 01 64:10:70
  TRACK 10 AUDIO
    INDEX 01 67:37:57
Wertung: (1)  
Hinzugefügt: 16 December 2010
RSS Feed
RSS Feed
Sprache
Deutsch Englisch Französisch
Mixsuche
Suchbegriff
Genauer Wortlaut
Alle Worte (UND)
Ein Wort (ODER)
Statistik
12778 Mixe eingetragen
12508 Tracklisten
Newsletter
E-Mail
Anmelden
Abmelden
SPONSOREN