Mixkatalog
 Einloggen
Login
Passwort

Deep Dance 070 Hits: 1  

Deep Dance 070


Kurzbeschreibung:
Deep Records präsentiert Deep Dance 70, Version 2003. Hier die nächste Nummer aus der Deep Edition Reihe. Auch Egypt Reihe genannt.
 
Crew/DJ: Deep Records Reihe: DD Serie Edition
Stil: Dance Erscheinungsjahr: 2003
Anzahl Tonträger: 1 Spielzeit: 79:48
Trackliste:
    Deep Dance Take 70:
    Spieldauer 30'23
  1. Intro
  2. Master Blaster - How Old Are You
  3. DJ S.P.U.D. - DJ Wimpy Does Britney
  4. Treesh - A Brighter Day
  5. ATB - I Don't Wanna Stop
  6. Jurgen Vries - The Opera Song
  7. Hot Steppaz - Around My Dream
  8. Kid Q - This Feeling
  9. Whitelabel - Drum & Bass
  10. Circ - Destroy She Said
  11. Drunkenmunky - The Grabbing Hands
  12. Chicane - Love On The Run
  13. Fragma - Man In The Moon
  14. 56k feat. Bejay - Save A Prayer
  15. Dance Nation - You Make Me Away
  16. Project Medusa - Moonshine
  17. Pulsedriver - Galaxy
  18. Lasgo - Pray
  19. Special D. - Come With Me
  20. Mario Lopez - Always & Forever
  21. Mythos 'N' Watergate - A Neverending Dream
  22. Lio - At The End
  23. Bolenski Beat - You're My Heart
  24. Groove Coverage - The End
  25. Sylver - Living My Life
  26. Scooter - Weekend
    Deep Italo:
    Spieldauer 23'34
  27. Aquarious - My Girl
  28. Safeway - I'm In Love
  29. Degauss - Walking' In The Sun
  30. Sci-Fi - You Me & Something
  31. Brothers - Sexy Girl
  32. Gabry Ponte - Geordie
  33. DJ Blizzard - Got To Be You
  34. Ashira - Once In A Lifetime
  35. Floorfilla - Sister Golden Hair
  36. Janardana - Heart Like Odysee
  37. Prezioso - In My Mind
  38. Mad - Respect
  39. Kronos - Magica Europa
  40. Sunny Bunny - Body Move
  41. Paps 'N' Skar - Love Is Love
  42. DJ Ross - Emotion
  43. Jemma Elliot - Something To Believe In
  44. Darwich - Stop That Time
  45. Molella - Baby
  46. Baby Jane - Can't You See
  47. Yosh feat. JK - Don't You Know
    Deep Slow:
    Spieldauer 25'52
  48. Shania Twain - Ka Ching
  49. Truth Hurts - The Truth
  50. Jeanette - It's Over
  51. She Loe - 5 Reasons
  52. Wolfsheim - Kein Zurück
  53. Eminem - Sing For The Moment
  54. 2 Pac - Thugz Mansion
  55. Jay-Z - Me & My Girlfriend
  56. Tatu - All The Things She Said
  57. Busta Rhymes - Make It Clap
  58. Camouflage - Me & You
  59. P!nk - Family Portrait
  60. Samajona - Sag Es - Listen To Me
  61. Yvonne Catterfeld - Gefühle
  62. Vanessa Amorosi - True To Yourself
  63. Angie Martinez - If I Could Go
  64. LL Cool J - Paradise
  65. Massive Töne - Traumreise
  66. Liberty X - Holding On For You
  67. Modern Talking - TV Makes The Superstar
  68. Deutschland Sucht Den Superstar - Freedom
  69. Gareth Gates - Anyone Of Us
  70. Holly Valance - Naughty Girl
Cue-Informationen:

FILE "filename.mp3" MP3
  TRACK 01 AUDIO
    INDEX 01 00:00:00
  TRACK 02 AUDIO
    INDEX 01 02:00:18
  TRACK 03 AUDIO
    INDEX 01 30:22:72
  TRACK 04 AUDIO
    INDEX 01 53:57:04
Wertung: (1)   Hinzugefügt: 30 December 2009
RSS Feed
RSS Feed
Sprache
Deutsch Englisch Französisch
Mixsuche
Suchbegriff
Genauer Wortlaut
Alle Worte (UND)
Ein Wort (ODER)
Statistik
14860 Mixe eingetragen
14547 Tracklisten
Newsletter
E-Mail
Anmelden
Abmelden
SPONSOREN